Valkyrae Stream

ValkyraeValkyrae live

3.0.3on Android

Valkyrae's videos and streams earned about $173,000 in a month. This money was earned by her getting 36.4 million views during those 28 days, adding up to 8.4 million hours of watch time. Watch Tentacles hentai videos online for free on Hentai Stream and enjoy our HQ video streaming.

Ateam Inc.

Join forces warlike Valkyries

Valkyrie – daughter of the Supreme ruler of the Scandinavian, who according to legend flew on his high-spirited winged horse over the battlefields and took the dead heroic death of warriors in Valhalla. It is on Norse mythology based storyline novelties VALKYRIE CONNECT from the Studio Ateam Inc, referring to the popular JRPG genre. The developer has managed to get a fair share of good reviews for your project Unison League, so we can hope, what are the new product does not reduce the current level.

Developers offer users a large-scale cooperative in the format battle this time, luxurious juicy graphics in anime style, an endless stream of motley enemies and the systematic improvement of the parameters under the control of a team of brave heroines. It is the expected present role in the project VALKYRIE CONNECT and grind, however, the user can use the option of automatic mode, in order to abstract from the execution of repetitive and monotonous actions. Although there are fans to do everything on their own...

Valkyrae Stream Schedule

Each of the characters VALKYRIE CONNECT endowed with its own set of skills, and the whole fighting force capable of attacking in unison, this is especially needed in battles with powerful bosses. Not a key role in the new play battle, much more difficult to adjust the composition and skills of your soldiers before the decisive battle. The multiplayer mode involves combining his team with two teams of real players – it does not turn out to benefit only themselves, because of the need to lean on each other, supporting and healing allies as the forces and, Of course, using common sense.

Specifications

Package name
GenreArcade games
RequirementsAndroid 4.0.3, 4.0.4 +
Devicesfor phone, for tablet

Attention! All files are posted with the permission of the authors of the applications or found in free access on the Internet, if any of the files violates your rights, let us know.

FAQ: Download and Install

-羞中恥療室Ikusa Otome ValkyrieRide of the ValkyrieВоительница Валькирия-

Valkyrae Streamer


Год выпуска: 2004
Страна: Япония-Жанр: demons, fantasy, futanari, rape
Продолжительность: >2 эп. по 30 мин.-Субтитры:

  • Английские
    Цензура: Отсутствует-Студия:HimajinKitty Media-Описание:
    Midgard, otherwise known as the world of humans, exists between the realm of the Norse gods and the land of the demons. It is the battleground of celestial beings and devilish monsters, with valkyries, the virgin warriors of legend, standing on the side of men. An evil plot is hatched, involving the capture of one of the foremost valkyries and her total enslavement. She is to be repeatedly violated into sexual submission, ultimately serving and servicing a general of her sworn enemies.-Информационные ссылки:AniDBMALWorld Art-Исходник: DVD-5
    Видео: MPEG2 NTSC 4x3 720x480 8000 Kbps
    Аудио ENG #1: AC-3 48000Hz 192 Kbps 2ch
    Аудио JAP #2: AC-3 48000Hz 192 Kbps 2ch

Список эпизодов

01.Seizure of the Goddess
02.Rape of the Goddess

MediaInfo

General
Complete name : H:VIDEO_TSVTS_01_1.VOB
Format : MPEG-PS
File size : 1 024 MiB
Duration : 16mn 44s
Overall bit rate : 8 547 Kbps
Video
ID : 224 (0xE0)
Format : MPEG Video
Format version : Version 2
Format profile : [email protected]
Format settings, BVOP : Yes
Format settings, Matrix : Default
Format settings, GOP : M=3, N=13
Duration : 16mn 44s
Bit rate : 8 000 Kbps
Width : 720 pixels
Height : 480 pixels
Display aspect ratio : 2.35:1
Frame rate : 29.970 fps
Standard : NTSC
Color space : YUV
Chroma subsampling : 4:2:0
Bit depth : 8 bits
Scan type : Interlaced
Scan order : Top Field First
Compression mode : Lossy
Bits/(Pixel*Frame) : 0.772
Stream size : 957 MiB (94%)
Color primaries : SMPTE 170M
Transfer characteristics : SMPTE 170M
Matrix coefficients : SMPTE 170M
Audio #1
ID : 189 (0xBD)-128 (0x80)
Format : AC-3
Format/Info : Audio Coding 3
Mode extension : CM (complete main)
Muxing mode : DVD-Video
Duration : 16mn 44s
Bit rate mode : Constant
Bit rate : 192 Kbps
Channel(s) : 2 channels
Channel positions : Front: L R
Sampling rate : 48.0 KHz
Bit depth : 16 bits
Compression mode : Lossy
Stream size : 23.0 MiB (2%)
Audio #2
ID : 189 (0xBD)-129 (0x81)
Format : AC-3
Format/Info : Audio Coding 3
Mode extension : CM (complete main)
Muxing mode : DVD-Video
Duration : 16mn 44s
Bit rate mode : Constant
Bit rate : 192 Kbps
Channel(s) : 2 channels
Channel positions : Front: L R
Sampling rate : 48.0 KHz
Bit depth : 16 bits
Compression mode : Lossy
Stream size : 23.0 MiB (2%)
Text
ID : 189 (0xBD)-33 (0x21)
Format : RLE
Format/Info : Run-length encoding
Muxing mode : DVD-Video

To download the content you need:
1. Download and install torrent client [for Windows] or for mobile system
2. Click on [Download]
Attention.
If the test YOU are NOT a ROBOT - does not work, then You are using an outdated browser.
Install the current browser and click on [Download]
Do not work with Yandex browser. Uploading files to them is erroneous.
Security: torrent client is allowed by Kaspersky.

Valkyrae Stream Music

[sexgirl.su].t621459.torrent
Torrent:Registered [ 2019-04-12 02:35 ]· 61AA47EB3AE0B0A4C1DD969F234E5580AC877930

Download

19 KB

Status:checked
Completed:0 times
Size:3.67 GB
terms.php